ExtraTorrent.cc - The Largest Bittorent SystemLogin   |   Register
Latest Articles
Most searched
Hot torrents
First Cams
View Torrent Info: Beauty and The Beast 2017 HD-TS x264-CPG
View Torrent Info: Kong.Skull.Island.2017.CAM.XviD-VAiN
View Torrent Info: The Shack 2017 HDCAM x264-iMLEAVING
View Torrent Info: T2.Trainspotting.2017.CAM.XViD-ETRG
Hot torrents
XVID DIVX
View Torrent Info: We.Dont.Belong.Here.2017.DVDRip.XviD.AC3-EVO
View Torrent Info: From.a.House.on.Willow.Street.2016.HDRip.XviD.AC3-EVO
View Torrent Info: The.Space.Between.Us.2017.HC.HDRip.XViD.AC3-ETRG
View Torrent Info: Walk.of.Fame.2017.HDRip.XviD.AC3-EVO
Hot torrents
H264 X264
View Torrent Info: Hidden.Figures.2016.720p.BRRip.x264.AAC-ETRG
View Torrent Info: Split.2016.FULL.NEW.SOURCE.1080p.HC.HDTV.x264.AAC-SHOWSCEN
View Torrent Info: Paterson.2016.720p.BRRip.x264.AAC-ETRG
View Torrent Info: Dont.Kill.It.2016.720p.BRRip.x264.AAC-ETRG
Hot torrents
BluRay, 4k UHD
View Torrent Info: The.Chamber.2016.BluRay.1080p.x264.DTSHD5.1-DDR
View Torrent Info: Gladiator 2000 Paramount Re-Issue Blu-ray 1080p x264 DTSHD 5.1 -DDR
View Torrent Info: Resident Evil The Final Chapter 2016 Multi 1080pBluRay x264 DTSHD 7.1 -DDR
View Torrent Info: Hidden.Figures.2016.1080p.BluRay.x264-GECKOS[EtHD]
Hot torrents
Television
View Torrent Info: The.Blacklist.Redemption.S01E05.HDTV.x264-KILLERS[ettv]
View Torrent Info: The.Last.Kingdom.S02E02.HDTV.x264-MTB[ettv]
View Torrent Info: Greys.Anatomy.S13E17.HDTV.x264-LOL[ettv]
View Torrent Info: Arrow.S05E17.HDTV.x264-LOL[ettv]
View Torrent Info: The Salesman (Forushande) 2016 Multi 1080p Blu-ray x264 DTSHD 5.1 MSubs-DDR
View Torrent Info: GANTZ:0 2016 BluRay 1080p x264 JPN DTSHD 5.1 ESub-DDR
View Torrent Info: Pandora.2016.HDRip.XviD.AC3-EVO
View Torrent Info: Hidden Figures (2016) 720p BRRip Hindi DD 5.1Ch - Eng DD 5.1Ch ~ PyZ
30s
Chat
To add new messages please Login or Register for FREE
Warning! Use a VPN When Downloading Torrents!
Your IP Address is 54.163.157.48.   Location is United States
Your Internet Provider and Government can track your torrent activity!  Hide your IP ADDRESS with a VPN!
ExtraTorrent strongly recommends using Trust.Zone VPN to anonymize your torrenting. It's FREE!
Get VPN Now for FREE!

ExtraTorrent.cc > Categories > Movies torrents > Bollywood/Desi torrents


Browse Movies torrents

Naam Hai Akira (2016) 1080p Blu-Ray x264 AAC 5.1 ESub -DDR torrent


Download torrent:Download Naam Hai Akira (2016) 1080p Blu-Ray x264 AAC 5.1 ESub -DDR torrentMagnet linkBookmark Torrent: Naam Hai Akira (2016) 1080p Blu-Ray x264 AAC 5.1 ESub -DDR Naam Hai Akira (2016) 1080p Blu-Ray x264 AAC 5.1 ESub -DDR torrent
Info hash:A39261CDF1ABD3509EE8A0B290D44103BEC1E1E3
Category:Categories > Movies torrents > Bollywood/Desi torrents
Trackers:
13   View all torrent trackers >
Health:
 seeds: 94, leechers: 90| Update >
Torrent language:Hindi Hindi
Total Size:2.59 GB
Number of files:
3   View torrent files >
Torrent status:Added by trusted uploader Added by trusted uploader Vip MemberTrusted UploaderET junkieET loverSuperman
Uploader:Vip MemberTrusted UploaderET junkieET loverSuperman
Torrent added:2017-01-11 04:00:47   |   Last edit: 2017-01-11 14:58:14 by
SaM
Users rating:8.3 / 10, total 3 votes.  Latest by: , ,
Naam Hai Akira (2016) 1080p Blu-Ray x264 AAC 5.1 ESub -DDR


Download Naam Hai Akira (2016) 1080p Blu-Ray x264 AAC 5.1 ESub -DDR torrent




Your IP Address is 54.163.157.48.   Location is United States
Your Internet Provider and Government can track your torrent activity!  Hide your IP ADDRESS with a VPN!
ExtraTorrent strongly recommends using Trust.Zone VPN to anonymize your torrenting. It's FREE!

HIDE ME NOW
Torrent Description
ddr_logo.png
cca88e945df61bbab2d9efc8fe81a6ec.md.jpg


1080p Blu-Ray Rip x264

Hindi AAC 5.1 Audio

English Subs

SCREENSHOTS
9268e666512cf7be727ad698446ff127.th.png eeecec87fedbfd16e4d6f2b4bbc2cbe2.th.png cfccf772b402adddafdee93aa9974344.th.png d205d62f0c1ac72e111b565ef917c48b.th.png 7493a70012057070845fe4718bdf9c78.th.png da1d11a51be147c134286f80e3230e15.th.png 3f625487183b0eb1eb786282a788dfa8.th.png 3dec7d031644d66714ddbb77672de27f.th.png 95656e7e71a174473a43454fe7205954.th.png 8d748de75db7caf3c0b231c3f43a925e.th.png 01fd92ffb2875325ea440456b29cc356.th.png a3beb9de9f43daf83e356f26a63332a0.th.png ff9396f3b2124557421c214ff25f4901.th.png 3446186dcf90c39a06bf83b3e357d62f.th.png 41d93eb42ca3ffe584902e162f7f5f4a.th.png e9e7915c4788098f9d273bdb03a7fd8d.th.png 9ea769d322dee6265b6aa5ee9671d6a7.th.png 8c96517f1a3fc771e7eaf04896e82358.th.png

SPECS


Source: Blu-ray BD50 @ HDT

Format : Matroska
File size : 2.58 GiB
Duration : 2 h 16 min
Overall bit rate : 2 698 kb/s

Video
Format : AVC
Format/Info : Advanced Video Codec
Format profile : [email protected]
Format settings, CABAC : Yes
Format settings, ReFrames : 5 frames
Codec ID : V_MPEG4/ISO/AVC
Duration : 2 h 16 min
Bit rate : 2 500 kb/s
Width : 1 920 pixels
Height : 800 pixels
Display aspect ratio : 2.40:1
Frame rate mode : Constant
Frame rate : 24.000 FPS
Color space : YUV
Chroma subsampling : 4:2:0
Bit depth : 8 bits
Scan type : Progressive
Bits/(Pixel*Frame) : 0.068
Stream size : 2.39 GiB (93%)
Default : Yes
Forced : No
Color range : Limited
Color primaries : BT.709
Transfer characteristics : BT.709
Matrix coefficients : BT.709

Audio #1
Format : AAC
Format/Info : Advanced Audio Codec
Format profile : LC
Codec ID : A_AAC
Duration : 2 h 16 min
Bit rate : 192 kb/s
Channel(s) : 6 channels
Channel positions : Front: L C R, Side: L R, LFE
Sampling rate : 48.0 kHz
Frame rate : 46.875 FPS (1024 spf)
Compression mode : Lossy
Delay relative to video : 9 ms
Stream size : 188 MiB (7%)
Language : Hindi
Default : Yes
Forced : No

SAMPLE Included

A DDR Exclusive Encode

Download Naam Hai Akira (2016) 1080p Blu-Ray x264 AAC 5.1 ESub -DDR torrent


Related Torrents


Comments (please add your comment)
1
posted by (2017-01-11 05:29:54)
No avatarthanks nice movie


2
posted by (2017-01-11 08:56:00)
subho_29 avatarNice If It Would Be IN DTS!!!





Home - Browse Torrents - Upload Torrent - Stat - Forum - FAQ - Login
ExtraTorrent.cc is in compliance with copyrights
BitCoin: 12DiyqsWhENahDzdhdYsRrCw8FPQVcCkcm
Can't load ExtraTorrent? Try our official mirrors: etmirror.com - etproxy.com - extratorrentonline.com - extratorrentlive.com
2006-2017 ExtraTorrent.cc3