ExtraTorrent.cc - The Largest Bittorent SystemLogin   |   Register
Latest Articles
Most searched
Hot torrents
First Cams
View Torrent Info: The.Fate.of.the.Furious.2017.HDTS.H264.AC3.HQ.Hive-CM8
View Torrent Info: The Boss Baby 2017 720p HD-TS x264 AC3-CPG
View Torrent Info: Before I Fall 2017 HDCAM 700MB x264-DiRG
View Torrent Info: The Belko Experiment 2017 HDCAM 700MB x264-DiRG
Hot torrents
XVID DIVX
View Torrent Info: Small.Crimes.2017.HDRip.XviD.AC3-EVO
View Torrent Info: The.Sex Addict.2017.HDRip.XViD-ETRG
View Torrent Info: A.Dark.Song.2016.HDRip.XviD.AC3-EVO
View Torrent Info: Voice.from.the.Stone.2017.HDRip.XViD-ETRG
Hot torrents
H264 X264
View Torrent Info: Rogue One (2016) 720p BluRay x264 DTS Soup
View Torrent Info: Sold (2016) x264 DvDRip DDS 5.1 Esub -DDR
View Torrent Info: Voice.from.the.Stone.2017.720p.WEB-DL.H264.AC3-ETRG
View Torrent Info: The Green Mile (1999) 720p BluRay x264 AC3 Soup
Hot torrents
BluRay, 4k UHD
View Torrent Info: Fifty.Shades.Darker.2017.UNRATED.Multi.1080p.BluRay.x264.DTSHD7.1-DDR
View Torrent Info: Avatar.2009.4K.HDR.10bit.BT2020.DTS.HD.MA-VISIONPLUSHDR1000
View Torrent Info: The Void 2016 Bluray 1080P x264 DTSHD 5.1 -DDR
View Torrent Info: The Legend of Ben Hall 2016 Bluray 1080p x264 DTSHD5.1 -DDR
Hot torrents
Television
View Torrent Info: The.Blacklist.S04E18.HDTV.x264-KILLERS[ettv]
View Torrent Info: Greys.Anatomy.S13E21.HDTV.x264-KILLERS[ettv]
View Torrent Info: The.Last.Kingdom.S02E07.HDTV.x264-MTB[ettv]
View Torrent Info: Arrow.S05E19.WEB-DL.x264-FUM[ettv]
View Torrent Info: [ 18] High Test Girls (1980) DVDRip x264 [Dual Audio][German English]--prisak~~{HKRG}
View Torrent Info: Baahubali 2 (2017) DesiCAM 1CDRIP x264 AAC [DDR]
View Torrent Info: Maya (2015) 1080p Untouched WEBHD AVC AAC [DDR]
View Torrent Info: Rebel (2012) 1080p Bluray x264 DTSHD 5.1 ESub -DDR
30s
Chat
To add new messages please Login or Register for FREE
Warning! Use a VPN When Downloading Torrents!
Your IP Address is 54.166.130.22.   Location is United States
Your Internet Provider and Government can track your torrent activity!  Hide your IP ADDRESS with a VPN!
ExtraTorrent strongly recommends using Trust.Zone VPN to anonymize your torrenting. It's FREE!
Get VPN Now for FREE!

ExtraTorrent.cc > Categories > TV torrents > Other torrents


Browse TV torrents

The.Ellen.DeGeneres.Show.2017.04.04.720p.HDTV.x264-ALTEREGO[PRiME] torrent


Download torrent:Download The.Ellen.DeGeneres.Show.2017.04.04.720p.HDTV.x264-ALTEREGO[PRiME] torrentMagnet linkBookmark Torrent: The.Ellen.DeGeneres.Show.2017.04.04.720p.HDTV.x264-ALTEREGO[PRiME] The.Ellen.DeGeneres.Show.2017.04.04.720p.HDTV.x264-ALTEREGO[PRiME] torrent
Info hash:D0085151202407760967EF1E6CD47E83F94B577B
Category:Categories > TV torrents > Other torrents
Trackers:
15   View all torrent trackers >
Health:
 seeds: ---, leechers: ---| Update >
Torrent language:English English
Total Size:1.22 GB
Number of files:
4   View torrent files >
Torrent status:Added by trusted uploader Added by trusted uploader Trusted UploaderSite FriendET junkieET lover
Uploader:Trusted UploaderSite FriendET junkieET lover
Torrent added:2017-04-21 16:47:44
Users rating:---, not rated. please login to rate.

Download The.Ellen.DeGeneres.Show.2017.04.04.720p.HDTV.x264-ALTEREGO[PRiME] torrent




Your IP Address is 54.166.130.22.   Location is United States
Your Internet Provider and Government can track your torrent activity!  Hide your IP ADDRESS with a VPN!
ExtraTorrent strongly recommends using Trust.Zone VPN to anonymize your torrenting. It's FREE!

HIDE ME NOW
Torrent Description
The.Ellen.DeGeneres.Show.2017.04.04.720p.HDTV.x264-ALTEREGO[PRiME]

Info.png

Complete name : The.Ellen.DeGeneres.Show.2017.04.04.720p.HDTV.x264-ALTEREGO[PRiME].mkv
Format : Matroska
Format version : Version 4 / Version 2
File size : 1.22 GiB
Duration : 41 min 2 s
Overall bit rate : 4 241 kb/s
Encoded date : UTC 2017-04-21 08:35:21
Writing application : mkvmerge v10.0.0 (\'To Drown In You\') 64bit
Writing library : libebml v1.3.4 + libmatroska v1.4.5

Video
ID : 1
Format : AVC
Format/Info : Advanced Video Codec
Format profile : [email protected]
Format settings, CABAC : Yes
Format settings, ReFrames : 5 frames
Codec ID : V_MPEG4/ISO/AVC
Duration : 41 min 1 s
Bit rate : 3 853 kb/s
Width : 1 280 pixels
Height : 720 pixels
Display aspect ratio : 16:9
Frame rate mode : Constant
Frame rate : 59.940 (60000/1001) FPS
Color space : YUV
Chroma subsampling : 4:2:0
Bit depth : 8 bits
Scan type : Progressive
Bits/(Pixel*Frame) : 0.070
Stream size : 1.10 GiB (91%)
Writing library : x264 core 148 r2744 b97ae06
Encoding settings : cabac=1 / ref=5 / deblock=1:0:0 / analyse=0x3:0x133 / me=umh / subme=8 / psy=1 / psy_rd=1.00:0.00 / mixed_ref=1 / me_range=16 / chroma_me=1 / trellis=2 / 8x8dct=1 / cqm=0 / deadzone=21,11 / fast_pskip=1 / chroma_qp_offset=-2 / threads=18 / lookahead_threads=3 / sliced_threads=0 / nr=0 / decimate=1 / interlaced=0 / bluray_compat=0 / constrained_intra=0 / bframes=3 / b_pyramid=2 / b_adapt=1 / b_bias=0 / direct=3 / weightb=1 / open_gop=0 / weightp=2 / keyint=599 / keyint_min=59 / scenecut=40 / intra_refresh=0 / rc_lookahead=50 / rc=crf / mbtree=1 / crf=18.0 / qcomp=0.60 / qpmin=0 / qpmax=69 / qpstep=4 / ip_ratio=1.40 / aq=1:1.00
Language : English
Default : Yes
Forced : No
Color range : Limited
Matrix coefficients : BT.709

Audio
ID : 2
Format : AC-3
Format/Info : Audio Coding 3
Mode extension : CM (complete main)
Format settings, Endianness : Big
Codec ID : A_AC3
Duration : 41 min 2 s
Bit rate mode : Constant
Bit rate : 384 kb/s
Channel(s) : 6 channels
Channel positions : Front: L C R, Side: L R, LFE
Sampling rate : 48.0 kHz
Frame rate : 31.250 FPS (1536 spf)
Compression mode : Lossy
Delay relative to video : 1 ms
Stream size : 113 MiB (9%)
Default : Yes
Forced : No


Screens.png

Click Image To View Full Size

jZUtx.th.jpg
Click To View Screenshot
Click To View Screenshot
Click To View Screenshot

Download The.Ellen.DeGeneres.Show.2017.04.04.720p.HDTV.x264-ALTEREGO[PRiME] torrent


Related Torrents


Comments (please add your comment)
No comments



Home - Browse Torrents - Upload Torrent - Stat - Forum - FAQ - Login
ExtraTorrent.cc is in compliance with copyrights
Can't load ExtraTorrent? Try our official mirrors: etmirror.com - etproxy.com - extratorrentonline.com - extratorrentlive.com
2006-2017 ExtraTorrent.cc2